[Login] or [Signup]
Popular Movies

Popular TV

Online Users
No Users Online

Navarasa.2021.NF.1080p.Hindi-Tamil.10bit.DDP.5.1.x265.[HashMiner]
Download this torrent
Download this torrent via magnet

Health:
Seeds: 35
Leechers: 11
Completed: 1,158 
Last Checked: 23-08-2021 07:15:27


File List:
 292.14 MB  Navarasa.S01E01.1080p.DDP.5.1.x265.[HashMiner].mkv
 796.15 MB  Navarasa.S01E02.1080p.DDP.5.1.x265.[HashMiner].mkv
 332.60 MB  Navarasa.S01E03.1080p.DDP.5.1.x265.[HashMiner].mkv
 581.21 MB  Navarasa.S01E04.1080p.DDP.5.1.x265.[HashMiner].mkv
 744.80 MB  Navarasa.S01E05.1080p.DDP.5.1.x265.[HashMiner].mkv
 777.77 MB  Navarasa.S01E06.1080p.DDP.5.1.x265.[HashMiner].mkv
 423.72 MB  Navarasa.S01E07.1080p.DDP.5.1.x265.[HashMiner].mkv
 772.06 MB  Navarasa.S01E08.1080p.DDP.5.1.x265.[HashMiner].mkv
 736.76 MB  Navarasa.S01E09.1080p.DDP.5.1.x265.[HashMiner].mkv
 1.49 kB  Uploaded by HashMiner! [ReadMe].txt


Details

Encoded by HashMiner!

1337x  |  TorrentGalaxy


Audio Language: Hindi, Tamil.

Subtitles Included:  Various.


══════════════════════════════════════════════════════════════════════════






Genre: Drama   
Plot:The nine episodes represent a different emotion or rasa such as anger,
compassion, courage, disgust, fear, laughter, love, peace and wonder.
 


══════════════════════════════════════════════════════════════════════════










══════════════════════════════════════════════════════════════════════════



[quote][code]General
Unique ID                      : 278506473364744942809649617137951021673                                  (0xD186654B03C9355AEE14DF578F579A69)
Complete name                  : Navarasa.S01E01.1080p.mkv
Format                         : Matroska
Format version                 : Version 4 / Version 2
File size                      : 292 MiB
Duration                       : 30 min 56 s
Overall bit rate               : 1 320 kb/s
Writing application            : mkvmerge v50.0.0 ('Awakenings') 64-bit
Writing library                : libebml v1.4.0 + libmatroska v1.6.2

Video
ID                             : 2
Format                         : HEVC
Format/Info                    : High Efficiency Video Coding
Format profile                 : Main [email protected]@Main
Codec ID                       : V_MPEGH/ISO/HEVC
Duration                       : 30 min 54 s
Bit rate                       : 738 kb/s
Width                          : 1 920 pixels
Height                         : 1 080 pixels
Display aspect ratio           : 16:9
Frame rate mode                : Constant
Frame rate                     : 23.976 (24000/1001) FPS
Color space                    : YUV
Chroma subsampling             : 4:2:0
Bit depth                      : 10 bits
Bits/(Pixel*Frame)             : 0.015
Stream size                    : 163 MiB (56%)
Writing library                : x265 3.5+1-f0c1022b6:[Windows][GCC 10.2.0][64 bit] 10bit
Encoding settings              : cpuid=1111039 / frame-threads=3 / numa-pools=12 / wpp / no-pmode / no-pme / no-psnr / no-ssim / log-level=2 / input-csp=1 / input-res=1920x1080 / interlace=0 / total-frames=0 / level-idc=0 / high-tier=1 / uhd-bd=0 / ref=1 / no-allow-non-conformance / no-repeat-headers / annexb / no-aud / no-hrd / info / hash=0 / no-temporal-layers / open-gop / min-keyint=24 / keyint=240 / gop-lookahead=0 / bframes=3 / b-adapt=0 / b-pyramid / bframe-bias=0 / rc-lookahead=5 / lookahead-slices=6 / scenecut=0 / hist-scenecut=0 / radl=0 / no-splice / no-intra-refresh / ctu=32 / min-cu-size=16 / no-rect / no-amp / max-tu-size=32 / tu-inter-depth=1 / tu-intra-depth=1 / limit-tu=0 / rdoq-level=0 / dynamic-rd=0.00 / no-ssim-rd / no-signhide / no-tskip / nr-intra=0 / nr-inter=0 / no-constrained-intra / strong-intra-smoothing / max-merge=2 / limit-refs=0 / no-limit-modes / me=0 / subme=0 / merange=57 / temporal-mvp / no-frame-dup / no-hme / no-weightp / no-weightb / no-analyze-src-pics / deblock=0:0 / no-sao / no-sao-non-deblock / rd=2 / selective-sao=0 / early-skip / rskip / fast-intra / no-tskip-fast / no-cu-lossless / no-b-intra / no-splitrd-skip / rdpenalty=0 / psy-rd=2.00 / psy-rdoq=0.00 / no-rd-refine / no-lossless / cbqpoffs=0 / crqpoffs=0 / rc=crf / crf=20.0 / qcomp=0.60 / qpstep=4 / stats-write=0 / stats-read=0 / ipratio=1.40 / pbratio=1.30 / aq-mode=1 / aq-strength=0.00 / cutree / zone-count=0 / no-strict-cbr / qg-size=32 / no-rc-grain / qpmax=69 / qpmin=0 / no-const-vbv / sar=1 / overscan=0 / videoformat=5 / range=0 / colorprim=9 / transfer=14 / colormatrix=9 / chromaloc=0 / display-window=0 / cll=0,0 / min-luma=0 / max-luma=1023 / log2-max-poc-lsb=8 / vui-timing-info / vui-hrd-info / slices=1 / no-opt-qp-pps / no-opt-ref-list-length-pps / no-multi-pass-opt-rps / scenecut-bias=0.05 / hist-threshold=0.03 / no-opt-cu-delta-qp / no-aq-motion / no-hdr10 / no-hdr10-opt / no-dhdr10-opt / no-idr-recovery-sei / analysis-reuse-level=0 / analysis-save-reuse-level=0 / analysis-load-reuse-level=0 / scale-factor=0 / refine-intra=0 / refine-inter=0 / refine-mv=1 / refine-ctu-distortion=0 / no-limit-sao / ctu-info=0 / no-lowpass-dct / refine-analysis-type=0 / copy-pic=1 / max-ausize-factor=1.0 / no-dynamic-refine / no-single-sei / no-hevc-aq / no-svt / no-field / qp-adaptation-range=1.00 / scenecut-aware-qp=0conformance-window-offsets / right=0 / bottom=0 / decoder-max-rate=0 / no-vbv-live-multi-pass
Default                        : Yes
Forced                         : No
Color range                    : Limited
Color primaries                : BT.2020
Transfer characteristics       : BT.2020
Matrix coefficients            : BT.2020 non-constant

Audio #1
ID                             : 1
Format                         : E-AC-3
Format/Info                    : Enhanced Audio Coding 3
Format settings, Endianness    : Big
Codec ID                       : A_EAC3
Duration                       : 30 min 56 s
Bit rate mode                  : Constant
Bit rate                       : 192 kb/s
Channel(s)                     : 6 channels
Channel positions              : Front: L C R, Side: L R, LFE
Sampling rate                  : 48.0 kHz
Frame rate                     : 187.500 FPS (256 SPF)
Compression mode               : Lossy
Delay relative to video        : -5 ms
Stream size                    : 42.5 MiB (15%)
Language                       : Tamil
Service kind                   : Complete Main
Default                        : No
Forced                         : No

Audio #2
ID                             : 3
Format                         : E-AC-3
Format/Info                    : Enhanced Audio Coding 3
Format settings, Endianness    : Big
Codec ID                       : A_EAC3
Duration                       : 30 min 56 s
Bit rate mode                  : Constant
Bit rate                       : 384 kb/s
Channel(s)                     : 6 channels
Channel positions              : Front: L C R, Side: L R, LFE
Sampling rate                  : 48.0 kHz
Frame rate                     : 187.500 FPS (256 SPF)
Compression mode               : Lossy
Delay relative to video        : -5 ms
Stream size                    : 85.0 MiB (29%)
Language                       : Hindi
Service kind                   : Complete Main
Default                        : Yes
Forced                         : No

Text #1
ID                             : 4
Format                         : ASS
Codec ID                       : S_TEXT/ASS
Codec ID/Info                  : Advanced Sub Station Alpha
Duration                       : 27 min 48 s
Bit rate                       : 82 b/s
Count of elements              : 298
Compression mode               : Lossless
Stream size                    : 16.8 KiB (0%)
Language                       : English
Default                        : No
Forced                         : No

[/code][/quote]


══════════════════════════════════════════════════════════════════════════



If you like my Encodes, Please consider donating


Bitcoin: 13Gm1RLtiLspyL7NrXZmeVKCXHTC5Eih1h

Ethereum: 0x1bA096179a4E3f9d6Ce3F89Ba7b9Ff94c325AdE8

Monero:
469v2aUdtVuH8VAU9fuPkNHA2gdkkST9p8QEZ1NyBCX2ekH47R6cpb77i2j7zG989v34GiZgW8eqcDnTTAzFmexE2cPRCzA

Category:TV > Packs
Lang:Unknown/NA
Total Size:5.33 GB
Info Hash:0083f0f5acc17e778a426b6598416c197a9b9849
Added By:HashMiner
Date Added:06-08-2021 18:53:26
Views:0
Hits:0
Rating:

/5 (0 votes cast)

Thanked by:
Viewed By:variant (4), IMAM00 (1), MadWatchdog (1)



URLSeedersLeechersCompleted
udp://open.stealth.si:80/announce000
udp://tracker.tiny-vps.com:6969/announce000
udp://fasttracker.foreverpirates.co:6969/announce000
udp://tracker.opentrackr.org:1337/announce000
udp://tracker.uw0.xyz:6969/announce000
udp://opentracker.i2p.rocks:6969/announce000
udp://tracker.torrent.eu.org:451/announce000
udp://opentor.org:2710/announce000
udp://tracker.dler.org:6969/announce000


Similar Torrents
None found

Comments

There are no comments yet.

Disclaimer
None of the files shown here are actually hosted on this server. The links are provided solely by this sites users. The administrator of this site cannot be held responsible for what its users post, or any other actions of its users. You may not use this site to distribute or download any material when you do not have the legal rights to do so. It is your own responsibility to adhere to these terms.

Page Generated In 0.019240 secs.
RSS Feed | Feed Info