[Login] or [Signup]
Popular Movies

Popular TV

Online Users
No Users Online

200: Halla Ho (2021) Hindi UNTOUCHED 720p Zee5 WEB-DL AAC2.0 ESub 750MB [HDWebMovies]
Download this torrent
Download this torrent via magnet

Health:
Seeds: 140
Leechers: 19
Completed: 1,553 
Last Checked: 23-08-2021 07:16:15


File List:
 753.25 MB  200 Halla Ho (2021) Hindi UNTOUCHED 720p Zee5 WEB-DL AAC2.0 ESub 750MB [HDWebMOvies].mkv


Details
Visit Our Site https://firetorrents.org/



Encoded by                               : Harley Quinn



Movie name :

200 Halla Ho (2021) Hindi UNTOUCHED 720p Zee5 WEB-DL AAC2.0 ESub 750MB [HDWebMovies]

General 
Format : Matroska 
Format version : Version 4 
File size : 753 MiB 
Duration : 1 h 55 min 
Overall bit rate mode : Variable 
Overall bit rate : 915 kb/s 
Encoded date : UTC 2021-08-20 05:36:08 
Writing application : mkvmerge v60.0.0 ('Are We Copies?') 64-bit 
Writing library : libebml v1.4.2 + libmatroska v1.6.4 

Video 
ID : 1 
Format : AVC 
Format/Info : Advanced Video Codec 
Format profile : [email protected] 
Format settings : CABAC / 4 Ref Frames 
Format settings, CABAC : Yes 
Format settings, Reference frames : 4 frames 
Format settings, GOP : M=4, N=50 
Codec ID : V_MPEG4/ISO/AVC 
Duration : 1 h 55 min 
Bit rate mode : Variable 
Bit rate : 849 kb/s 
Maximum bit rate : 2 700 kb/s 
Width : 1 280 pixels 
Height : 720 pixels 
Display aspect ratio : 16:9 
Frame rate mode : Constant 
Frame rate : 25.000 FPS 
Color space : YUV 
Chroma subsampling : 4:2:0 
Bit depth : 8 bits 
Scan type : Progressive 
Bits/(Pixel*Frame) : 0.037 
Stream size : 699 MiB (93%) 
Language : Hindi 
Default : Yes 
Forced : No 
Color range : Limited 
Color primaries : BT.709 
Transfer characteristics : BT.709 
Matrix coefficients : BT.709 

Audio 
ID : 2 
Format : AAC LC 
Format/Info : Advanced Audio Codec Low Complexity 
Codec ID : A_AAC-2 
Duration : 1 h 55 min 
Bit rate : 64.0 kb/s 
Channel(s) : 2 channels 
Channel layout : L R 
Sampling rate : 48.0 kHz 
Frame rate : 46.875 FPS (1024 SPF) 
Compression mode : Lossy 
Stream size : 52.7 MiB (7%) 
Language : Hindi 
Default : Yes 
Forced : No 

Text 
ID : 3 
Format : UTF-8 
Codec ID : S_TEXT/UTF8 
Codec ID/Info : UTF-8 Plain Text 
Duration : 1 h 49 min 
Bit rate : 65 b/s 
Count of elements : 1615 
Stream size : 53.2 KiB (0%) 
Language : English 
Default : No 
Forced : No 

                                        








 
Category:Movies > Web-DL
Lang:Unknown/NA
Total Size:753.25 MB
Info Hash:5dc150d1f44d24491639330ede431b4d2960f2e4
Added By:suryadipta
Date Added:20-08-2021 07:42:26
Views:0
Hits:0
Rating:

4.0/5 (1 vote cast)

Thanked by:
Viewed By:a1parate (1)



URLSeedersLeechersCompleted
udp://tracker.nyaa.uk:6969/announce000
udp://tracker.coppersurfer.tk:6969/announce000
udp://tracker.opentrackr.org:1337/announce000
udp://9.rarbg.com:2970/announce000
udp://p4p.arenabg.com:1337/announce000
udp://tracker.pirateparty.gr:6969/announce000
udp://exodus.desync.com:6969/announce000
udp://tracker.torrent.eu.org:451/announce000
udp://tracker.tiny-vps.com:6969/announce000
http://pow7.com:80/announce000
udp://151.80.120.114:2710/announce000
udp://9.rarbg.to:2790/announce000
udp://open.stealth.si:80/announce000
udp://tracker.leechers-paradise.org:6969/announce000
http://t.nyaatracker.com:80/announce000


Similar Torrents
None found

Comments

There are no comments yet.

Disclaimer
None of the files shown here are actually hosted on this server. The links are provided solely by this sites users. The administrator of this site cannot be held responsible for what its users post, or any other actions of its users. You may not use this site to distribute or download any material when you do not have the legal rights to do so. It is your own responsibility to adhere to these terms.

Page Generated In 0.011616 secs.
RSS Feed | Feed Info