[Login] or [Signup]
Popular Movies

Popular TV

Online Users

Sweet.Girl.2021.1080p.NF.ENGLISH-HINDI.10bit.DDP.5.1.x265.[HashMIner]
Download this torrent
Download this torrent via magnet

Health:
Seeds: 50
Leechers: 16
Completed: 503 
Last Checked: 23-08-2021 07:16:18


File List:
 2.46 GB    Sweet.Girl.2021.1080p.NF.ENGLISH-HINDI.10bit.DDP.5.1.x265.[HashMIner].mkv
 1.49 kB  Uploaded by HashMiner! [ReadMe].txt


Details

Encoded by HashMiner!

1337x  |  TorrentGalaxy



Audio Language: ENGLISH, HINDI.

Subtitles Included: [/b]English, Arabic, Chinese, Chinese, Croatian, Czech, Danish, Dutch, Spanish, Finnish, French, German, Greek, Hebrew, Hungarian, Indonesian, Italian, Japanese, Korean, Malay, Norwegian, Bokmal, Polish, Portuguese,
 Portuguese, Romanian, Russian, Spanish, Swedish, Thai, Turkish[b]
.


══════════════════════════════════════════════════════════════════════════






Genre: Action, Thriller, Drama.
Stars : Jason Momoa, Isabela Merced, Manuel Garcia-Rulfo, Raza Jaffrey, Adria Arjona.      
Plot:A devastated husband vows to bring justice to the people responsible for his wife’s death while protecting the only family he has left, his daughter.


══════════════════════════════════════════════════════════════════════════










══════════════════════════════════════════════════════════════════════════

[quote][code]
General
Unique ID                      : 34873327455641876849257771558068256869                                  (0x1A3C5BCAA2B82A6E1F19DB73EEFF8065)
Complete name                  : Sweet.Girl.2021.1080p.NF.10bit.DDP.5.1.x265.mkv
Format                         : Matroska
Format version                 : Version 4 / Version 2
File size                      : 2.46 GiB
Duration                       : 1 h 50 min
Overall bit rate               : 3 203 kb/s
Writing application            : mkvmerge v50.0.0 ('Awakenings') 64-bit
Writing library                : libebml v1.4.0 + libmatroska v1.6.2 / Lavf58.76.100
Cover                          : Yes
Attachments                    : cover.jpg

Video
ID                             : 1
Format                         : HEVC
Format/Info                    : High Efficiency Video Coding
Format profile                 : Main [email protected]@Main
Codec ID                       : V_MPEGH/ISO/HEVC
Duration                       : 1 h 50 min
Bit rate                       : 2 366 kb/s
Width                          : 1 920 pixels
Height                         : 1 080 pixels
Display aspect ratio           : 16:9
Frame rate mode                : Constant
Frame rate                     : 23.976 (24000/1001) FPS
Color space                    : YUV
Chroma subsampling             : 4:2:0
Bit depth                      : 10 bits
Bits/(Pixel*Frame)             : 0.048
Stream size                    : 1.82 GiB (74%)
Writing library                : x265 3.5+1-f0c1022b6:[Windows][GCC 10.2.0][64 bit] 10bit
Encoding settings              : cpuid=1111039 / frame-threads=3 / numa-pools=12 / wpp / no-pmode / no-pme / no-psnr / no-ssim / log-level=2 / input-csp=1 / input-res=1920x1080 / interlace=0 / total-frames=0 / level-idc=0 / high-tier=1 / uhd-bd=0 / ref=1 / no-allow-non-conformance / no-repeat-headers / annexb / no-aud / no-hrd / info / hash=0 / no-temporal-layers / open-gop / min-keyint=24 / keyint=240 / gop-lookahead=0 / bframes=3 / b-adapt=0 / b-pyramid / bframe-bias=0 / rc-lookahead=5 / lookahead-slices=6 / scenecut=0 / hist-scenecut=0 / radl=0 / no-splice / no-intra-refresh / ctu=32 / min-cu-size=16 / no-rect / no-amp / max-tu-size=32 / tu-inter-depth=1 / tu-intra-depth=1 / limit-tu=0 / rdoq-level=0 / dynamic-rd=0.00 / no-ssim-rd / no-signhide / no-tskip / nr-intra=0 / nr-inter=0 / no-constrained-intra / strong-intra-smoothing / max-merge=2 / limit-refs=0 / no-limit-modes / me=0 / subme=0 / merange=57 / temporal-mvp / no-frame-dup / no-hme / no-weightp / no-weightb / no-analyze-src-pics / deblock=0:0 / no-sao / no-sao-non-deblock / rd=2 / selective-sao=0 / early-skip / rskip / fast-intra / no-tskip-fast / no-cu-lossless / no-b-intra / no-splitrd-skip / rdpenalty=0 / psy-rd=2.00 / psy-rdoq=0.00 / no-rd-refine / no-lossless / cbqpoffs=0 / crqpoffs=0 / rc=crf / crf=17.0 / qcomp=0.60 / qpstep=4 / stats-write=0 / stats-read=0 / ipratio=1.40 / pbratio=1.30 / aq-mode=1 / aq-strength=0.00 / cutree / zone-count=0 / no-strict-cbr / qg-size=32 / no-rc-grain / qpmax=69 / qpmin=0 / no-const-vbv / sar=1 / overscan=0 / videoformat=5 / range=0 / colorprim=1 / transfer=1 / colormatrix=1 / chromaloc=0 / display-window=0 / cll=0,0 / min-luma=0 / max-luma=1023 / log2-max-poc-lsb=8 / vui-timing-info / vui-hrd-info / slices=1 / no-opt-qp-pps / no-opt-ref-list-length-pps / no-multi-pass-opt-rps / scenecut-bias=0.05 / hist-threshold=0.03 / no-opt-cu-delta-qp / no-aq-motion / no-hdr10 / no-hdr10-opt / no-dhdr10-opt / no-idr-recovery-sei / analysis-reuse-level=0 / analysis-save-reuse-level=0 / analysis-load-reuse-level=0 / scale-factor=0 / refine-intra=0 / refine-inter=0 / refine-mv=1 / refine-ctu-distortion=0 / no-limit-sao / ctu-info=0 / no-lowpass-dct / refine-analysis-type=0 / copy-pic=1 / max-ausize-factor=1.0 / no-dynamic-refine / no-single-sei / no-hevc-aq / no-svt / no-field / qp-adaptation-range=1.00 / scenecut-aware-qp=0conformance-window-offsets / right=0 / bottom=0 / decoder-max-rate=0 / no-vbv-live-multi-pass
Default                        : Yes
Forced                         : No
Color range                    : Limited
Color primaries                : BT.709
Transfer characteristics       : BT.709
Matrix coefficients            : BT.709

Audio #1
ID                             : 2
Format                         : E-AC-3
Format/Info                    : Enhanced Audio Coding 3
Format settings, Endianness    : Big
Codec ID                       : A_EAC3
Duration                       : 1 h 50 min
Bit rate mode                  : Constant
Bit rate                       : 640 kb/s
Channel(s)                     : 6 channels
Channel positions              : Front: L C R, Side: L R, LFE
Sampling rate                  : 48.0 kHz
Frame rate                     : 187.500 FPS (256 SPF)
Compression mode               : Lossy
Delay relative to video        : -5 ms
Stream size                    : 504 MiB (20%)
Title                          : English
Language                       : English
Service kind                   : Complete Main
Default                        : Yes
Forced                         : No

Audio #2
ID                             : 35
Format                         : AAC
Format/Info                    : Advanced Audio Codec
Format profile                 : LC
Codec ID                       : A_AAC
Duration                       : 1 h 50 min
Bit rate                       : 192 kb/s
Channel(s)                     : 6 channels
Channel positions              : Front: L C R, Side: L R, LFE
Sampling rate                  : 48.0 kHz
Frame rate                     : 46.875 FPS (1024 SPF)
Compression mode               : Lossy
Delay relative to video        : -5 ms
Stream size                    : 151 MiB (6%)
Title                          : Hindi
Language                       : Hindi
Default                        : No
Forced                         : No

Text #1
ID                             : 3
Format                         : ASS
Codec ID                       : S_TEXT/ASS
Codec ID/Info                  : Advanced Sub Station Alpha
Duration                       : 1 h 45 min
Bit rate                       : 119 b/s
Count of elements              : 1442
Compression mode               : Lossless
Stream size                    : 92.6 KiB (0%)
Title                          : English
Language                       : English
Default                        : No
Forced                         : No

Text #2
ID                             : 4
Format                         : ASS
Codec ID                       : S_TEXT/ASS
Codec ID/Info                  : Advanced Sub Station Alpha
Duration                       : 1 h 47 min
Bit rate                       : 59 b/s
Count of elements              : 908
Compression mode               : Lossless
Stream size                    : 47.0 KiB (0%)
Title                          : Malay
Default                        : No
Forced                         : No

Text #3
ID                             : 5
Format                         : ASS
Codec ID                       : S_TEXT/ASS
Codec ID/Info                  : Advanced Sub Station Alpha
Duration                       : 1 h 47 min
Bit rate                       : 84 b/s
Count of elements              : 911
Compression mode               : Lossless
Stream size                    : 67.2 KiB (0%)
Title                          : Arabic
Language                       : Arabic
Default                        : No
Forced                         : No

Text #4
ID                             : 6
Format                         : ASS
Codec ID                       : S_TEXT/ASS
Codec ID/Info                  : Advanced Sub Station Alpha
Duration                       : 1 h 47 min
Bit rate                       : 57 b/s
Count of elements              : 909
Compression mode               : Lossless
Stream size                    : 45.7 KiB (0%)
Title                          : Chinese Simplified
Language                       : Chinese
Default                        : No
Forced                         : No[/code][/quote][quote][/quote]

══════════════════════════════════════════════════════════════════════════



If you like my Encodes, Please consider donating


Bitcoin: 13Gm1RLtiLspyL7NrXZmeVKCXHTC5Eih1h

Ethereum: 0x1bA096179a4E3f9d6Ce3F89Ba7b9Ff94c325AdE8

Monero:
469v2aUdtVuH8VAU9fuPkNHA2gdkkST9p8QEZ1NyBCX2ekH47R6cpb77i2j7zG989v34GiZgW8eqcDnTTAzFmexE2cPRCzA

Category:Movies > HD/Bluray
Lang:English  English
Total Size:2.46 GB
Info Hash:186b970512d75e106c369d29b0bd9c95b549666e
Added By:HashMiner
Date Added:20-08-2021 11:47:32
Views:0
Hits:0
Rating:

/5 (0 votes cast)

Thanked by:
Viewed By:suryadipta (2), ShaDowSHB (1)



URLSeedersLeechersCompleted
udp://open.stealth.si:80/announce000
udp://tracker.tiny-vps.com:6969/announce000
udp://fasttracker.foreverpirates.co:6969/announce000
udp://tracker.opentrackr.org:1337/announce000
udp://tracker.uw0.xyz:6969/announce000
udp://opentracker.i2p.rocks:6969/announce000
udp://tracker.torrent.eu.org:451/announce000
udp://opentor.org:2710/announce000
udp://tracker.dler.org:6969/announce000


Similar Torrents
Type Name Size Added S L
Sweet Girl (2021) 720p NF WEB-DL x264 Dual Audio [Hindi DD5.1 - Eng DD5.1] ESub 1GB [FireTorrents]] Sweet Girl (2021) 720p NF WEB-DL x264 Dual Audio [Hindi DD5.1 - Eng DD5.1] ...
1.03 GB 2021-08-20 13:17:52 227 62

Comments

<< Previous      Next >>
1 - 2

[Report] Posted: 23-08-2021 at 17:07:19
SeedX



Uploaded: 0.00 B
Downloaded: 0.00 B
Ratio: ---

Hey, #Hash Miner I want to ask you a favour dude can you please... For hosting images of your screenshots can you please use the Extraimage.in the website dude.
Please dude it is a request.
I hope you will you thank you dude

[Report] Posted: 23-08-2021 at 17:08:53
SeedX



Uploaded: 0.00 B
Downloaded: 0.00 B
Ratio: ---

I am requesting you because your torrents has a great reach dude every body knows your name dude so that's why please dude it is my friend site dude please

1 - 2
<< Previous      Next >>


Disclaimer
None of the files shown here are actually hosted on this server. The links are provided solely by this sites users. The administrator of this site cannot be held responsible for what its users post, or any other actions of its users. You may not use this site to distribute or download any material when you do not have the legal rights to do so. It is your own responsibility to adhere to these terms.

Page Generated In 0.014848 secs.
RSS Feed | Feed Info