[Login] or [Signup]
Popular Movies

Popular TV

Online Users
No Users Online

Sweet Girl (2021) 720p NF WEB-DL x264 Dual Audio [Hindi DD5.1 - Eng DD5.1] ESub 1GB [FireTorrents]]
Download this torrent
Download this torrent via magnet

Health:
Seeds: 227
Leechers: 62
Completed: 2,068 
Last Checked: 23-08-2021 07:16:19


File List:
 1.03 GB    Sweet Girl (2021) 720p NF WEB-DL x264 Dual Audio [Hindi DD5.1 - Eng DD5.1] ESub 1GB [HDWebMovies].mkv


Details
Visit Our Site 
   https://firetorrents.org/


Encoded by                               : Harley Quinn



Movie name :

Sweet Girl (2021) 720p NF WEB-DL x264 Dual Audio [Hindi DD5.1 - Eng DD5.1] ESub 1GB [FireTorrents]

General 
Format : Matroska 
Format version : Version 4 
File size : 1.03 GiB 
Duration : 1 h 50 min 
Overall bit rate : 1 344 kb/s 
Encoded date : UTC 2021-08-20 12:10:26 
Writing application : mkvmerge v60.0.0 ('Are We Copies?') 64-bit 
Writing library : libebml v1.4.2 + libmatroska v1.6.4 

Video 
ID : 1 
Format : AVC 
Format/Info : Advanced Video Codec 
Format profile : [email protected] 
Format settings : CABAC / 4 Ref Frames 
Format settings, CABAC : Yes 
Format settings, Reference frames : 4 frames 
Codec ID : V_MPEG4/ISO/AVC 
Duration : 1 h 50 min 
Bit rate : 985 kb/s 
Width : 1 280 pixels 
Height : 544 pixels 
Display aspect ratio : 2.35:1 
Frame rate mode : Constant 
Frame rate : 24.000 FPS 
Color space : YUV 
Chroma subsampling : 4:2:0 
Bit depth : 8 bits 
Scan type : Progressive 
Bits/(Pixel*Frame) : 0.059 
Stream size : 754 MiB (71%) 
Default : Yes 
Forced : No 
Color range : Limited 
Color primaries : BT.709 
Transfer characteristics : BT.709 
Matrix coefficients : BT.709 

Audio #1 
ID : 2 
Format : AC-3 
Format/Info : Audio Coding 3 
Commercial name : Dolby Digital 
Codec ID : A_AC3 
Duration : 1 h 50 min 
Bit rate mode : Constant 
Bit rate : 192 kb/s 
Channel(s) : 6 channels 
Channel layout : L R C LFE Ls Rs 
Sampling rate : 48.0 kHz 
Frame rate : 31.250 FPS (1536 SPF) 
Compression mode : Lossy 
Delay relative to video : -21 ms 
Stream size : 151 MiB (14%) 
Language : English 
Service kind : Complete Main 
Default : Yes 
Forced : No 

Audio #2 
ID : 3 
Format : AC-3 
Format/Info : Audio Coding 3 
Commercial name : Dolby Digital 
Codec ID : A_AC3 
Duration : 1 h 50 min 
Bit rate mode : Constant 
Bit rate : 192 kb/s 
Channel(s) : 6 channels 
Channel layout : L R C LFE Ls Rs 
Sampling rate : 48.0 kHz 
Frame rate : 31.250 FPS (1536 SPF) 
Compression mode : Lossy 
Delay relative to video : -21 ms 
Stream size : 151 MiB (14%) 
Language : Hindi 
Service kind : Complete Main 
Default : No 
Forced : No 

Text 
ID : 4 
Format : UTF-8 
Codec ID : S_TEXT/UTF8 
Codec ID/Info : UTF-8 Plain Text 
Duration : 1 h 45 min 
Bit rate : 58 b/s 
Count of elements : 1442 
Stream size : 45.1 KiB (0%) 
Language : English 
Default : Yes 
Forced : No 

                                        








 
Category:Movies > Web-DL
Lang:English  English
Total Size:1.03 GB
Info Hash:30ca007cc266e3f25436186644dc9f4b3ef426e8
Added By:suryadipta
Date Added:20-08-2021 14:17:52
Views:0
Hits:0
Rating:

/5 (0 votes cast)

Thanked by:
Viewed By:suryadipta (2), SeedX (2)



URLSeedersLeechersCompleted
udp://tracker.nyaa.uk:6969/announce000
udp://tracker.coppersurfer.tk:6969/announce000
udp://tracker.opentrackr.org:1337/announce000
udp://9.rarbg.com:2830/announce000
udp://p4p.arenabg.com:1337/announce000
udp://tracker.pirateparty.gr:6969/announce000
udp://exodus.desync.com:6969/announce000
udp://tracker.torrent.eu.org:451/announce000
udp://tracker.tiny-vps.com:6969/announce000
http://pow7.com:80/announce000
udp://151.80.120.114:2710/announce000
udp://9.rarbg.to:2780/announce000
udp://open.stealth.si:80/announce000
udp://tracker.leechers-paradise.org:6969/announce000
http://t.nyaatracker.com:80/announce000


Similar Torrents
Type Name Size Added S L
Sweet.Girl.2021.1080p.NF.ENGLISH-HINDI.10bit.DDP.5.1.x265.[HashMIner] Sweet.Girl.2021.1080p.NF.ENGLISH-HINDI.10bit.DDP.5.1.x265.[HashMIner]
2.46 GB 2021-08-20 10:47:32 50 16

Comments

There are no comments yet.

Disclaimer
None of the files shown here are actually hosted on this server. The links are provided solely by this sites users. The administrator of this site cannot be held responsible for what its users post, or any other actions of its users. You may not use this site to distribute or download any material when you do not have the legal rights to do so. It is your own responsibility to adhere to these terms.

Page Generated In 0.016655 secs.
RSS Feed | Feed Info