[Login] or [Signup]
Popular Movies

Popular TV

Online Users
No Users Online

Boomika (2021) UNTOUCHED 1080p NF WEB-DL Multi Audios [Hin-Tam-Tel-Mal] DD+5.1 ESub 7GB [Themoviesboss]
Download this torrent
Download this torrent via magnet

Health:
Seeds: 24
Leechers: 39
Completed: 169 
Last Checked: 23-08-2021 07:20:43


File List:
 7.11 GB    Boomika (2021) UNTOUCHED 1080p NF WEB-DL Multi Audios [Hin-Tam-Tel-Mal] DD+5.1 ESub [Themoviesboss].mkv


Details

Encoded by                               : Harley Quinn



Movie name :

Boomika (2021) UNTOUCHED 1080p NF WEB-DL Multi Audios [Hin-Tam-Tel-Mal] DD+5.1 ESub 7GB [Themoviesboss]

General 
Format : Matroska 
Format version : Version 4 
File size : 7.11 GiB 
Duration : 2 h 2 min 
Overall bit rate mode : Variable 
Overall bit rate : 8 327 kb/s 
Encoded date : UTC 2021-08-22 20:05:33 
Writing application : mkvmerge v60.0.0 ('Are We Copies?') 64-bit 
Writing library : libebml v1.4.2 + libmatroska v1.6.4 

Video 
ID : 1 
Format : AVC 
Format/Info : Advanced Video Codec 
Format profile : [email protected] 
Format settings : CABAC / 3 Ref Frames 
Format settings, CABAC : Yes 
Format settings, Reference frames : 3 frames 
Format settings, GOP : M=3, N=48 
Codec ID : V_MPEG4/ISO/AVC 
Duration : 2 h 2 min 
Bit rate mode : Variable 
Bit rate : 5 800 kb/s 
Maximum bit rate : 8 700 kb/s 
Width : 1 920 pixels 
Height : 1 080 pixels 
Display aspect ratio : 16:9 
Frame rate mode : Constant 
Frame rate : 24.000 FPS 
Color space : YUV 
Chroma subsampling : 4:2:0 
Bit depth : 8 bits 
Scan type : Progressive 
Bits/(Pixel*Frame) : 0.117 
Stream size : 4.92 GiB (69%) 
Forced : No 

Audio #1 
ID : 2 
Format : E-AC-3 
Format/Info : Enhanced AC-3 
Commercial name : Dolby Digital Plus 
Codec ID : A_EAC3 
Duration : 2 h 2 min 
Bit rate mode : Constant 
Bit rate : 640 kb/s 
Channel(s) : 6 channels 
Channel layout : L R C LFE Ls Rs 
Sampling rate : 48.0 kHz 
Frame rate : 31.250 FPS (1536 SPF) 
Compression mode : Lossy 
Stream size : 559 MiB (8%) 
Title : Hindi 
Language : Hindi 
Service kind : Complete Main 
Default : Yes 
Forced : No 

Audio #2 
ID : 3 
Format : E-AC-3 
Format/Info : Enhanced AC-3 
Commercial name : Dolby Digital Plus 
Codec ID : A_EAC3 
Duration : 2 h 2 min 
Bit rate mode : Constant 
Bit rate : 640 kb/s 
Channel(s) : 6 channels 
Channel layout : L R C LFE Ls Rs 
Sampling rate : 48.0 kHz 
Frame rate : 31.250 FPS (1536 SPF) 
Compression mode : Lossy 
Stream size : 559 MiB (8%) 
Title : Tamil 
Language : Tamil 
Service kind : Complete Main 
Default : Yes 
Forced : No 

Audio #3 
ID : 4 
Format : E-AC-3 
Format/Info : Enhanced AC-3 
Commercial name : Dolby Digital Plus 
Codec ID : A_EAC3 
Duration : 2 h 2 min 
Bit rate mode : Constant 
Bit rate : 640 kb/s 
Channel(s) : 6 channels 
Channel layout : L R C LFE Ls Rs 
Sampling rate : 48.0 kHz 
Frame rate : 31.250 FPS (1536 SPF) 
Compression mode : Lossy 
Stream size : 559 MiB (8%) 
Title : Telugu 
Language : Telugu 
Service kind : Complete Main 
Default : Yes 
Forced : No 

Audio #4 
ID : 5 
Format : E-AC-3 
Format/Info : Enhanced AC-3 
Commercial name : Dolby Digital Plus 
Codec ID : A_EAC3 
Duration : 2 h 2 min 
Bit rate mode : Constant 
Bit rate : 640 kb/s 
Channel(s) : 6 channels 
Channel layout : L R C LFE Ls Rs 
Sampling rate : 48.0 kHz 
Frame rate : 31.250 FPS (1536 SPF) 
Compression mode : Lossy 
Stream size : 559 MiB (8%) 
Title : Malayalam 
Language : Malayalam 
Service kind : Complete Main 
Default : Yes 
Forced : No 

Text #1 
ID : 6 
Format : UTF-8 
Codec ID : S_TEXT/UTF8 
Codec ID/Info : UTF-8 Plain Text 
Duration : 1 h 57 min 
Bit rate : 50 b/s 
Count of elements : 1326 
Stream size : 43.4 KiB (0%) 
Title : English 
Language : English 
Default : No 
Forced : No 

Text #2 
ID : 7 
Format : UTF-8 
Codec ID : S_TEXT/UTF8 
Codec ID/Info : UTF-8 Plain Text 
Duration : 1 h 57 min 
Bit rate : 50 b/s 
Count of elements : 1326 
Stream size : 43.4 KiB (0%) 
Title : English 
Language : English 
Default : No 
Forced : No 

                                        








 
Category:Movies > Web-DL
Lang:Unknown/NA
Total Size:7.11 GB
Info Hash:d25a1d0641aada4280e8f94b2c93765603238e9d
Added By:suryadipta
Date Added:22-08-2021 22:16:38
Views:0
Hits:0
Rating:

/5 (0 votes cast)

Thanked by:
Viewed By:variant (2), suryadipta (1), TMB (1), SeedX (1)



URLSeedersLeechersCompleted
udp://tracker.nyaa.uk:6969/announce000
udp://tracker.coppersurfer.tk:6969/announce000
udp://tracker.opentrackr.org:1337/announce000
udp://9.rarbg.com:2940/announce000
udp://p4p.arenabg.com:1337/announce000
udp://tracker.pirateparty.gr:6969/announce000
udp://exodus.desync.com:6969/announce000
udp://tracker.torrent.eu.org:451/announce000
udp://tracker.tiny-vps.com:6969/announce000
http://pow7.com:80/announce000
udp://151.80.120.114:2710/announce000
udp://9.rarbg.to:2820/announce000
udp://open.stealth.si:80/announce000
udp://tracker.leechers-paradise.org:6969/announce000
http://t.nyaatracker.com:80/announce000



Comments

There are no comments yet.

Disclaimer
None of the files shown here are actually hosted on this server. The links are provided solely by this sites users. The administrator of this site cannot be held responsible for what its users post, or any other actions of its users. You may not use this site to distribute or download any material when you do not have the legal rights to do so. It is your own responsibility to adhere to these terms.

Page Generated In 0.016723 secs.
RSS Feed | Feed Info