[Login] or [Signup]
Popular Movies

Popular TV

Online Users

12 O’Clock (2021) Hindi 720p AMZN WEB-DL DDP5.1 x264 1.1GB [Themoviesboss]
Download this torrent
Download this torrent via magnet

Health:
Seeds: 5
Leechers: 53
Completed:
Last Checked: 29-08-2021 16:45:37


File List:
 1.13 GB    12 O’Clock (2021) Hindi 720p AMZN WEB-DL DDP5.1 x264 1.1GB [Themoviesboss].mkv


Details
Visit Our Site 
   themoviesboss.com

firetorrents.org


Encoded by                               : Harley Quinn



Movie name :

12 O’Clock (2021) Hindi 720p AMZN WEB-DL DDP5.1 x264  1.0GB [Themoviesboss]

General 
Format : Matroska 
Format version : Version 4 
File size : 1.13 GiB 
Duration : 1 h 52 min 
Overall bit rate : 1 443 kb/s 
Encoded date : UTC 2021-08-29 14:54:55 
Writing application : mkvmerge v60.0.0 ('Are We Copies?') 64-bit 
Writing library : libebml v1.4.2 + libmatroska v1.6.4 

Video 
ID : 1 
Format : AVC 
Format/Info : Advanced Video Codec 
Format profile : [email protected] 
Format settings : 2 Ref Frames 
Format settings, CABAC : No 
Format settings, Reference frames : 2 frames 
Codec ID : V_MPEG4/ISO/AVC 
Duration : 1 h 52 min 
Bit rate : 1 280 kb/s 
Width : 1 280 pixels 
Height : 544 pixels 
Display aspect ratio : 2.35:1 
Frame rate mode : Constant 
Frame rate : 24.000 FPS 
Color space : YUV 
Chroma subsampling : 4:2:0 
Bit depth : 8 bits 
Scan type : Progressive 
Bits/(Pixel*Frame) : 0.077 
Stream size : 1.01 GiB (89%) 
Writing library : x264 core 159 
 Default : Yes 
Forced : No 

Audio 
ID : 2 
Format : AAC LC 
Format/Info : Advanced Audio Codec Low Complexity 
Codec ID : A_AAC-2 
Duration : 1 h 52 min 
Bit rate : 160 kb/s 
Channel(s) : 6 channels 
Channel layout : C L R Ls Rs LFE 
Sampling rate : 48.0 kHz 
Frame rate : 46.875 FPS (1024 SPF) 
Compression mode : Lossy 
Delay relative to video : -21 ms 
Stream size : 129 MiB (11%) 
Language : Hindi 
Default : Yes 
Forced : No 

                                        









 
Category:Movies > Web-DL
Lang:Unknown/NA
Total Size:1.13 GB
Info Hash:46835a290802ae5cb4f952025418c0a3c824dc59
Added By:suryadipta
Date Added:29-08-2021 16:44:01
Views:0
Hits:0
Rating:

/5 (0 votes cast)

Thanked by:
Viewed By:variant (2), a1parate (1)



URLSeedersLeechersCompleted
udp://tracker.nyaa.uk:6969/announce000
udp://tracker.coppersurfer.tk:6969/announce000
udp://tracker.opentrackr.org:1337/announce000
udp://9.rarbg.com:2870/announce000
udp://p4p.arenabg.com:1337/announce000
udp://tracker.pirateparty.gr:6969/announce000
udp://exodus.desync.com:6969/announce000
udp://tracker.torrent.eu.org:451/announce000
udp://tracker.tiny-vps.com:6969/announce000
http://pow7.com:80/announce000
udp://9.rarbg.to:2930/announce000
udp://open.stealth.si:80/announce000
udp://tracker.leechers-paradise.org:6969/announce000
http://t.nyaatracker.com:80/announce000
udp://tracker.trackerfix.com:80/announce000


Similar Torrents
None found

Comments

There are no comments yet.

Disclaimer
None of the files shown here are actually hosted on this server. The links are provided solely by this sites users. The administrator of this site cannot be held responsible for what its users post, or any other actions of its users. You may not use this site to distribute or download any material when you do not have the legal rights to do so. It is your own responsibility to adhere to these terms.

Page Generated In 0.016266 secs.
RSS Feed | Feed Info