[Login] or [Signup]
Popular Movies

Popular TV

Online Users

Brooklyn.Nine-Nine.S08E05.1080p.10bit.DDP.5.1.x265.[HashMiner]
Download this torrent
Download this torrent via magnet

Health:
Seeds: 1
Leechers: 3
Completed:
Last Checked: 30-08-2021 19:10:17


File List:
 629.25 MB  Brooklyn.Nine-Nine.S08E05.1080p.10bit.DDP.5.1.x265.[HashMiner].mkv
 1.49 kB  Uploaded by HashMiner! [ReadMe].txt
 25.00 B  www.FIRETORRENTS.org For More Releases!!.txt


Details

Encoded by HashMiner!

1337x  |  TorrentGalaxy |FireTorrents

[/url]


Audio Language: English.

Subtitles Included: English.
 .


══════════════════════════════════════════════════════════════════════════






Genre: Action Comedy Crime.
Stars :Dirk Blocker, Joel McKinnon Miller, Marc Evan Jackson, Andy Samberg, Andre Braugher, Melissa Fumero, Stephanie Beatriz, Joe Lo Truglio, Terry
 Crews, Chelsea Peretti
Plot:A ensemble comedy following the lives of an eclectic group of detectives in a New York precinct, including one slacker who is forced to shape up
 when he gets a new boss.
 


══════════════════════════════════════════════════════════════════════════










══════════════════════════════════════════════════════════════════════════



[quote][code]General
Unique ID                      : 122758932991414103438752210323798001561                                  (0x5C5A82B00EA1FF010DDD3F6847D48799)
Complete name                  : Brooklyn.Nine-Nine.S08E05.1080p.10bit.DDP.5.1.x265.mkv
Format                         : Matroska
Format version                 : Version 4 / Version 2
File size                      : 629 MiB
Duration                       : 21 min 15 s
Overall bit rate               : 4 138 kb/s
Writing library                : Lavf58.29.100
ErrorDetectionType             : Per level 1

Video
ID                             : 1
Format                         : HEVC
Format/Info                    : High Efficiency Video Coding
Format profile                 : Main [email protected]@Main
Codec ID                       : V_MPEGH/ISO/HEVC
Duration                       : 21 min 15 s
Bit rate                       : 3 415 kb/s
Width                          : 1 920 pixels
Height                         : 1 080 pixels
Display aspect ratio           : 16:9
Frame rate mode                : Constant
Frame rate                     : 23.976 (24000/1001) FPS
Color space                    : YUV
Chroma subsampling             : 4:2:0
Bit depth                      : 10 bits
Bits/(Pixel*Frame)             : 0.069
Stream size                    : 519 MiB (83%)
Writing library                : x265 3.2.1+1-b5c86a64bbbe:[Windows][GCC 9.2.0][64 bit] 10bit
Encoding settings              : cpuid=1111039 / frame-threads=3 / numa-pools=12 / wpp / no-pmode / no-pme / no-psnr / no-ssim / log-level=2 / input-csp=1 / input-res=1920x1080 / interlace=0 / total-frames=0 / level-idc=0 / high-tier=1 / uhd-bd=0 / ref=2 / no-allow-non-conformance / no-repeat-headers / annexb / no-aud / no-hrd / info / hash=0 / no-temporal-layers / open-gop / min-keyint=24 / keyint=240 / gop-lookahead=0 / bframes=4 / b-adapt=0 / b-pyramid / bframe-bias=0 / rc-lookahead=15 / lookahead-slices=6 / scenecut=40 / radl=0 / no-splice / no-intra-refresh / ctu=64 / min-cu-size=8 / no-rect / no-amp / max-tu-size=32 / tu-inter-depth=1 / tu-intra-depth=1 / limit-tu=0 / rdoq-level=0 / dynamic-rd=0.00 / no-ssim-rd / signhide / no-tskip / nr-intra=0 / nr-inter=0 / no-constrained-intra / strong-intra-smoothing / max-merge=2 / limit-refs=3 / no-limit-modes / me=1 / subme=2 / merange=57 / temporal-mvp / no-hme / weightp / no-weightb / no-analyze-src-pics / deblock=0:0 / sao / no-sao-non-deblock / rd=2 / selective-sao=4 / early-skip / rskip / fast-intra / no-tskip-fast / no-cu-lossless / no-b-intra / no-splitrd-skip / rdpenalty=0 / psy-rd=2.00 / psy-rdoq=0.00 / no-rd-refine / no-lossless / cbqpoffs=0 / crqpoffs=0 / rc=crf / crf=20.0 / qcomp=0.60 / qpstep=4 / stats-write=0 / stats-read=0 / ipratio=1.40 / pbratio=1.30 / aq-mode=2 / aq-strength=1.00 / cutree / zone-count=0 / no-strict-cbr / qg-size=32 / no-rc-grain / qpmax=69 / qpmin=0 / no-const-vbv / sar=1 / overscan=0 / videoformat=5 / range=0 / colorprim=1 / transfer=1 / colormatrix=1 / chromaloc=0 / display-window=0 / cll=0,0 / min-luma=0 / max-luma=1023 / log2-max-poc-lsb=8 / vui-timing-info / vui-hrd-info / slices=1 / no-opt-qp-pps / no-opt-ref-list-length-pps / no-multi-pass-opt-rps / scenecut-bias=0.05 / no-opt-cu-delta-qp / no-aq-motion / no-hdr / no-hdr-opt / no-dhdr10-opt / no-idr-recovery-sei / analysis-reuse-level=5 / scale-factor=0 / refine-intra=0 / refine-inter=0 / refine-mv=1 / refine-ctu-distortion=0 / no-limit-sao / ctu-info=0 / no-lowpass-dct / refine-analysis-type=0 / copy-pic=1 / max-ausize-factor=1.0 / no-dynamic-refine / no-single-sei / no-hevc-aq / no-svt / no-field / qp-adaptation-range=1.00
Default                        : Yes
Forced                         : No
Color range                    : Limited
Color primaries                : BT.709
Transfer characteristics       : BT.709
Matrix coefficients            : BT.709
DURATION                       : 00:21:15.738000000

Audio
ID                             : 2
Format                         : E-AC-3
Format/Info                    : Enhanced Audio Coding 3
Format settings, Endianness    : Big
Codec ID                       : A_EAC3
Duration                       : 21 min 15 s
Bit rate mode                  : Constant
Bit rate                       : 640 kb/s
Channel(s)                     : 6 channels
Channel positions              : Front: L C R, Side: L R, LFE
Sampling rate                  : 48.0 kHz
Frame rate                     : 187.500 FPS (256 SPF)
Compression mode               : Lossy
Delay relative to video        : -5 ms
Stream size                    : 97.3 MiB (15%)
Title                          : Surround
Language                       : English
Service kind                   : Complete Main
Default                        : Yes
Forced                         : No
DURATION                       : 00:21:15.744000000

Text #1
ID                             : 3
Format                         : ASS
Codec ID                       : S_TEXT/ASS
Codec ID/Info                  : Advanced Sub Station Alpha
Compression mode               : Lossless
Language                       : English
Default                        : No
Forced                         : No
DURATION                       : 00:21:10.665000000

Text #2
ID                             : 4
Format                         : ASS
Codec ID                       : S_TEXT/ASS
Codec ID/Info                  : Advanced Sub Station Alpha
Compression mode               : Lossless
Title                          : SDH
Language                       : English
Default                        : No
Forced                         : No
DURATION                       : 00:21:10.665000000
[/code][/quote]
══════════════════════════════════════════════════════════════════════════



If you like my Encodes, Please consider donating


Bitcoin: 13Gm1RLtiLspyL7NrXZmeVKCXHTC5Eih1h

Ethereum: 0x1bA096179a4E3f9d6Ce3F89Ba7b9Ff94c325AdE8

Monero:
469v2aUdtVuH8VAU9fuPkNHA2gdkkST9p8QEZ1NyBCX2ekH47R6cpb77i2j7zG989v34GiZgW8eqcDnTTAzFmexE2cPRCzA

Category:TV > HD
Lang:English  English
Total Size:629.25 MB
Info Hash:b2c018569bf9c132cfca0aef8c156e05ed1e7e93
Added By:HashMiner
Date Added:30-08-2021 19:07:01
Views:0
Hits:0
Rating:

/5 (0 votes cast)

Thanked by:
Viewed By:No users have viewed this torrent yet



URLSeedersLeechersCompleted
udp://open.stealth.si:80/announce000
udp://tracker.tiny-vps.com:6969/announce000
udp://fasttracker.foreverpirates.co:6969/announce000
udp://tracker.opentrackr.org:1337/announce000
udp://tracker.uw0.xyz:6969/announce000
udp://opentracker.i2p.rocks:6969/announce000
udp://tracker.torrent.eu.org:451/announce000
udp://opentor.org:2710/announce000
udp://tracker.dler.org:6969/announce000



Comments

There are no comments yet.

Disclaimer
None of the files shown here are actually hosted on this server. The links are provided solely by this sites users. The administrator of this site cannot be held responsible for what its users post, or any other actions of its users. You may not use this site to distribute or download any material when you do not have the legal rights to do so. It is your own responsibility to adhere to these terms.

Page Generated In 0.020415 secs.
RSS Feed | Feed Info