[Login] or [Signup]
Popular Movies

Popular TV

Online Users

Cinderella (2021) English 720p AMZN WEB-DL AC3DD5.1 MultiMSub (Hindi+Eng+Tam+Tel) 900MB [Themoviesboss]
Download this torrent
Download this torrent via magnet

Health:
Seeds: 24
Leechers: 36
Completed: 43 
Last Checked: 03-09-2021 12:40:32


File List:
 878.84 MB  Cinderella (2021) English 720p AMZN WEB-DL AC3DD5.1 MultiMSub (Hindi+Eng+Tam+Tel) 900MB [Themoviesboss].mkv


Details
Visit Our Site 
   themoviesboss.com

firetorrents.org


Encoded by                               : Harley Quinn



Movie name :

ICinderella (2021) English 720p AMZN WEB-DL AC3DD5.1 MultiMSub (Hindi+Eng+Tamil + Telugu) 900MB  [Themoviesboss]

General 
Format : Matroska 
Format version : Version 4 
File size : 879 MiB 
Duration : 1 h 52 min 
Overall bit rate : 1 092 kb/s 
Encoded date : UTC 2021-09-03 06:46:18 
Writing application : mkvmerge v60.0.0 ('Are We Copies?') 64-bit 
Writing library : libebml v1.4.2 + libmatroska v1.6.4 

Video 
ID : 1 
Format : AVC 
Format/Info : Advanced Video Codec 
Format profile : [email protected] 
Format settings : CABAC / 4 Ref Frames 
Format settings, CABAC : Yes 
Format settings, Reference frames : 4 frames 
Codec ID : V_MPEG4/ISO/AVC 
Duration : 1 h 52 min 
Bit rate : 906 kb/s 
Width : 1 280 pixels 
Height : 536 pixels 
Display aspect ratio : 2.40:1 
Frame rate mode : Constant 
Frame rate : 23.976 (24000/1001) FPS 
Color space : YUV 
Chroma subsampling : 4:2:0 
Bit depth : 8 bits 
Scan type : Progressive 
Bits/(Pixel*Frame) : 0.055 
Stream size : 722 MiB (82%) 
Writing library : x264 core 157 r2935 545de2f 
Encoding settings : cabac=1 / ref=1 / deblock=1:0:0 / analyse=0x3:0x113 / me=hex / subme=2 / psy=1 / psy_rd=1.00:0.00 / mixed_ref=0 / me_range=16 / chroma_me=1 / trellis=0 / 8x8dct=1 / cqm=0 / deadzone=21,11 / fast_pskip=1 / chroma_qp_offset=0 / threads=17 / lookahead_threads=4 / sliced_threads=0 / nr=0 / decimate=1 / interlaced=0 / bluray_compat=0 / constrained_intra=0 / bframes=3 / b_pyramid=2 / b_adapt=1 / b_bias=0 / direct=1 / weightb=1 / open_gop=0 / weightp=1 / keyint=240 / keyint_min=23 / scenecut=40 / intra_refresh=0 / rc_lookahead=10 / rc=abr / mbtree=1 / bitrate=906 / ratetol=1.0 / qcomp=0.60 / qpmin=0 / qpmax=69 / qpstep=4 / ip_ratio=1.40 / aq=1:1.00 
Language : English 
Default : Yes 
Forced : No 

Audio 
ID : 2 
Format : AC-3 
Format/Info : Audio Coding 3 
Commercial name : Dolby Digital 
Codec ID : A_AC3 
Duration : 1 h 52 min 
Bit rate mode : Constant 
Bit rate : 192 kb/s 
Channel(s) : 6 channels 
Channel layout : L R C LFE Ls Rs 
Sampling rate : 48.0 kHz 
Frame rate : 31.250 FPS (1536 SPF) 
Compression mode : Lossy 
Stream size : 154 MiB (18%) 
Language : English 
Service kind : Complete Main 
Default : Yes 
Forced : No 

Text #1 
ID : 3 
Format : UTF-8 
Codec ID : S_TEXT/UTF8 
Codec ID/Info : UTF-8 Plain Text 
Duration : 1 h 52 min 
Bit rate : 85 b/s 
Count of elements : 2353 
Stream size : 70.6 KiB (0%) 
Language : English 
Default : Yes 
Forced : No 

Text #2 
ID : 4 
Format : UTF-8 
Codec ID : S_TEXT/UTF8 
Codec ID/Info : UTF-8 Plain Text 
Duration : 1 h 51 min 
Bit rate : 172 b/s 
Count of elements : 1694 
Stream size : 142 KiB (0%) 
Language : Tamil 
Default : No 
Forced : No 

Text #3 
ID : 5 
Format : UTF-8 
Codec ID : S_TEXT/UTF8 
Codec ID/Info : UTF-8 Plain Text 
Duration : 1 h 51 min 
Bit rate : 161 b/s 
Count of elements : 1693 
Stream size : 132 KiB (0%) 
Language : Telugu 
Default : No 
Forced : No 

Text #4 
ID : 6 
Format : UTF-8 
Codec ID : S_TEXT/UTF8 
Codec ID/Info : UTF-8 Plain Text 
Duration : 1 h 51 min 
Bit rate : 151 b/s 
Count of elements : 1694 
Stream size : 124 KiB (0%) 
Language : Hindi 
Default : No 
Forced : No 



                                      









 
Category:Movies > Web-DL
Lang:English  English
Total Size:878.84 MB
Info Hash:c611782bb6a25a8d2bba55c1f15979355bc4c54b
Added By:suryadipta
Date Added:03-09-2021 12:37:40
Views:0
Hits:0
Rating:

/5 (0 votes cast)

Thanked by:
Viewed By:No users have viewed this torrent yet



URLSeedersLeechersCompleted
udp://tracker.nyaa.uk:6969/announce000
udp://tracker.coppersurfer.tk:6969/announce000
udp://tracker.opentrackr.org:1337/announce000
udp://9.rarbg.com:2960/announce000
udp://p4p.arenabg.com:1337/announce000
udp://tracker.pirateparty.gr:6969/announce000
udp://exodus.desync.com:6969/announce000
udp://tracker.torrent.eu.org:451/announce000
udp://tracker.tiny-vps.com:6969/announce000
http://pow7.com:80/announce000
udp://9.rarbg.to:2780/announce000
udp://open.stealth.si:80/announce000
udp://tracker.leechers-paradise.org:6969/announce000
http://t.nyaatracker.com:80/announce000
udp://tracker.trackerfix.com:80/announce000


Similar Torrents
None found

Comments

There are no comments yet.

Disclaimer
None of the files shown here are actually hosted on this server. The links are provided solely by this sites users. The administrator of this site cannot be held responsible for what its users post, or any other actions of its users. You may not use this site to distribute or download any material when you do not have the legal rights to do so. It is your own responsibility to adhere to these terms.

Page Generated In 0.017810 secs.
RSS Feed | Feed Info