[Login] or [Signup]
Popular Movies

Popular TV

Online Users

Money Heist (2021) S05 (E01-05) 720p NF WEB-DL Multi Audio [Hin+Eng+Tam+Tel] AC3DD5.1 ESub 3.4GB [Themoviesboss]
Download this torrent
Download this torrent via magnet

Health:
Seeds: 2
Leechers: 17
Completed:
Last Checked: 03-09-2021 12:40:34


File List:
 619.81 MB  EP01 - The End of the Roadin.mkv
 781.68 MB  EP02 - Do You Believe in Reincarnation.mkv
 637.75 MB  EP03 - Welcome to the Spectacle of Life.mkv
 758.70 MB  EP04 - Your Place in Heaven.mkv
 755.00 MB  EP05 - Live Many Lives.mkv


Details
Visit Our Site 
   themoviesboss.com
 
firetorrents.org
 
 
Encoded by                               : Harley Quinn
 

Movie name :
 
Money Heist (2021) S05 (E01-05) 720p NF WEB-DL Multi Audio [Hin+Eng+Tam+Tel] AC3DD5.1 ESub 3.4GB [Themoviesboss]
 
General 
Format : Matroska 
Format version : Version 4 
File size : 620 MiB (Each File)
Duration : 49 min 24 s 
Overall bit rate mode : Variable 
Overall bit rate : 1 754 kb/s 
Encoded date : UTC 2021-09-03 10:47:18 
Writing application : mkvmerge v60.0.0 ('Are We Copies?') 64-bit 
Writing library : libebml v1.4.2 + libmatroska v1.6.4 

Video 
ID : 1 
Format : AVC 
Format/Info : Advanced Video Codec 
Format profile : [email protected] 
Format settings : CABAC / 4 Ref Frames 
Format settings, CABAC : Yes 
Format settings, Reference frames : 4 frames 
Codec ID : V_MPEG4/ISO/AVC 
Duration : 49 min 23 s 
Bit rate mode : Variable 
Bit rate : 984 kb/s 
Maximum bit rate : 14.0 Mb/s 
Width : 1 280 pixels 
Height : 720 pixels 
Display aspect ratio : 16:9 
Frame rate mode : Constant 
Frame rate : 24.000 FPS 
Color space : YUV 
Chroma subsampling : 4:2:0 
Bit depth : 8 bits 
Scan type : Progressive 
Bits/(Pixel*Frame) : 0.044 
Stream size : 347 MiB (56%) 
Writing library : x264 core 148 r2722 1b0121b 
Default : Yes 
Forced : No 

Audio #1 
ID : 2 
Format : E-AC-3 
Format/Info : Enhanced AC-3 
Commercial name : Dolby Digital Plus 
Codec ID : A_EAC3 
Duration : 49 min 24 s 
Bit rate mode : Constant 
Bit rate : 192 kb/s 
Channel(s) : 6 channels 
Channel layout : L R C LFE Ls Rs 
Sampling rate : 48.0 kHz 
Frame rate : 31.250 FPS (1536 SPF) 
Compression mode : Lossy 
Stream size : 67.9 MiB (11%) 
Language : Tamil 
Service kind : Complete Main 
Default : Yes 
Forced : No 

Audio #2 
ID : 3 
Format : E-AC-3 
Format/Info : Enhanced AC-3 
Commercial name : Dolby Digital Plus 
Codec ID : A_EAC3 
Duration : 49 min 24 s 
Bit rate mode : Constant 
Bit rate : 192 kb/s 
Channel(s) : 6 channels 
Channel layout : L R C LFE Ls Rs 
Sampling rate : 48.0 kHz 
Frame rate : 31.250 FPS (1536 SPF) 
Compression mode : Lossy 
Stream size : 67.9 MiB (11%) 
Language : Telugu 
Service kind : Complete Main 
Default : No 
Forced : No 

Audio #3 
ID : 4 
Format : E-AC-3 
Format/Info : Enhanced AC-3 
Commercial name : Dolby Digital Plus 
Codec ID : A_EAC3 
Duration : 49 min 24 s 
Bit rate mode : Constant 
Bit rate : 192 kb/s 
Channel(s) : 6 channels 
Channel layout : L R C LFE Ls Rs 
Sampling rate : 48.0 kHz 
Frame rate : 31.250 FPS (1536 SPF) 
Compression mode : Lossy 
Stream size : 67.9 MiB (11%) 
Language : Hindi 
Service kind : Complete Main 
Default : No 
Forced : No 

Audio #4 
ID : 5 
Format : E-AC-3 
Format/Info : Enhanced AC-3 
Commercial name : Dolby Digital Plus 
Codec ID : A_EAC3 
Duration : 49 min 24 s 
Bit rate mode : Constant 
Bit rate : 192 kb/s 
Channel(s) : 6 channels 
Channel layout : L R C LFE Ls Rs 
Sampling rate : 48.0 kHz 
Frame rate : 31.250 FPS (1536 SPF) 
Compression mode : Lossy 
Stream size : 67.9 MiB (11%) 
Language : English 
Service kind : Complete Main 
Default : No 
Forced : No 

Text 
ID : 6 
Format : UTF-8 
Codec ID : S_TEXT/UTF8 
Codec ID/Info : UTF-8 Plain Text 
Duration : 46 min 49 s 
Bit rate : 65 b/s 
Count of elements : 661 
Stream size : 22.6 KiB (0%) 
Language : English 
Default : Yes 
Forced : No 



                                      
 
 
 


 
Category:TV > Packs
Lang:Unknown/NA
Total Size:3.47 GB
Info Hash:f4e9639a710e7d7aec42560819f49bf5984c38c9
Added By:suryadipta
Date Added:03-09-2021 12:39:17
Views:0
Hits:0
Rating:

/5 (0 votes cast)

Thanked by:
Viewed By:No users have viewed this torrent yet



URLSeedersLeechersCompleted
udp://tracker.nyaa.uk:6969/announce000
udp://tracker.coppersurfer.tk:6969/announce000
udp://tracker.opentrackr.org:1337/announce000
udp://9.rarbg.com:2960/announce000
udp://p4p.arenabg.com:1337/announce000
udp://tracker.pirateparty.gr:6969/announce000
udp://exodus.desync.com:6969/announce000
udp://tracker.torrent.eu.org:451/announce000
udp://tracker.tiny-vps.com:6969/announce000
http://pow7.com:80/announce000
udp://9.rarbg.to:2780/announce000
udp://open.stealth.si:80/announce000
udp://tracker.leechers-paradise.org:6969/announce000
http://t.nyaatracker.com:80/announce000
udp://tracker.trackerfix.com:80/announce000


Similar Torrents

Comments

There are no comments yet.

Disclaimer
None of the files shown here are actually hosted on this server. The links are provided solely by this sites users. The administrator of this site cannot be held responsible for what its users post, or any other actions of its users. You may not use this site to distribute or download any material when you do not have the legal rights to do so. It is your own responsibility to adhere to these terms.

Page Generated In 0.014450 secs.
RSS Feed | Feed Info