[Login] or [Signup]
Popular Movies

Popular TV

Online Users
No Users Online

Candy (2021) Hindi S01 (E01-08) 720p VooT WEB-DL x264 AAC 5.1 x264 ESub 2.8GB [Themoviesboss]
Download this torrent
Download this torrent via magnet

Health:
Seeds: 2
Leechers: 3
Completed:
Last Checked: 09-09-2021 07:25:32


File List:
 368.09 MB  Candy S01E01 - Hope In The Darkness.mkv
 406.20 MB  Candy S01E02 - The Outsider.mkv
 374.92 MB  Candy S01E03 - The Rage of Rudrakund.mkv
 376.35 MB  Candy S01E04 - Old Sins.mkv
 325.51 MB  Candy S01E05 - Predators Prayers Sacrifices.mkv
 359.84 MB  Candy S01E06 - End of The Line.mkv
 327.93 MB  Candy S01E07 - The Heir of Misfortunes.mkv
 357.89 MB  Candy S01E08 - The Masaan.mkv


Details
Visit Our Site 
   themoviesboss.com

firetorrents.org


Encoded by                               : Harley Quinn



Movie name :

Candy (2021) Hindi S01 (E01-08) 720p VooT WEB-DL x264 AAC 5.1 x264 ESub 2.8GB  [Themoviesboss]

General 
Format : Matroska 
Format version : Version 4 
File size : 368 MiB 
Duration : 39 min 47 s 
Overall bit rate mode : Variable 
Overall bit rate : 1 293 kb/s 
Encoded date : UTC 2021-09-09 03:41:33 
Writing application : mkvmerge v60.0.0 ('Are We Copies?') 64-bit 
Writing library : libebml v1.4.2 + libmatroska v1.6.4 

Video 
ID : 1 
Format : AVC 
Format/Info : Advanced Video Codec 
Format profile : [email protected] 
Format settings : CABAC / 7 Ref Frames 
Format settings, CABAC : Yes 
Format settings, Reference frames : 7 frames 
Codec ID : V_MPEG4/ISO/AVC 
Duration : 39 min 47 s 
Bit rate mode : Variable 
Bit rate : 1 100 kb/s 
Maximum bit rate : 62.5 Mb/s 
Width : 1 280 pixels 
Height : 592 pixels 
Display aspect ratio : 2.137 
Original display aspect ratio : 2.138 
Frame rate mode : Constant 
Frame rate : 25.000 FPS 
Color space : YUV 
Chroma subsampling : 4:2:0 
Bit depth : 8 bits 
Scan type : Progressive 
Bits/(Pixel*Frame) : 0.058 
Stream size : 313 MiB (85%) 
Writing library : x264 core 157 r2935 545de2f 
Encoding settings : cabac=1 / ref=8 / deblock=1:-1:-1 / analyse=0x3:0x113 / me=hex / subme=7 / psy=1 / psy_rd=1.00:0.15 / mixed_ref=1 / me_range=16 / chroma_me=1 / trellis=1 / 8x8dct=1 / cqm=0 / deadzone=21,11 / fast_pskip=1 / chroma_qp_offset=-3 / threads=18 / lookahead_threads=3 / sliced_threads=0 / nr=0 / decimate=1 / interlaced=0 / bluray_compat=0 / constrained_intra=0 / bframes=5 / b_pyramid=1 / b_adapt=1 / b_bias=0 / direct=1 / weightb=1 / open_gop=0 / weightp=1 / keyint=250 / keyint_min=25 / scenecut=40 / intra_refresh=0 / rc_lookahead=40 / rc=2pass / mbtree=1 / bitrate=1100 / ratetol=1.0 / qcomp=0.60 / qpmin=0 / qpmax=69 / qpstep=4 / cplxblur=20.0 / qblur=0.5 / vbv_maxrate=62500 / vbv_bufsize=78125 / nal_hrd=vbr / filler=0 / ip_ratio=1.40 / aq=1:1.00 
Default : Yes 
Forced : No 

Audio 
ID : 2 
Format : AAC LC 
Format/Info : Advanced Audio Codec Low Complexity 
Codec ID : A_AAC-2 
Duration : 39 min 47 s 
Bit rate : 192 kb/s 
Channel(s) : 6 channels 
Channel layout : C L R Ls Rs LFE 
Sampling rate : 48.0 kHz 
Frame rate : 46.875 FPS (1024 SPF) 
Compression mode : Lossy 
Delay relative to video : 9 ms 
Stream size : 54.5 MiB (15%) 
Language : Hindi 
Default : Yes 
Forced : No 

Text 
ID : 3 
Format : UTF-8 
Codec ID : S_TEXT/UTF8 
Codec ID/Info : UTF-8 Plain Text 
Duration : 34 min 58 s 
Bit rate : 54 b/s 
Count of elements : 469 
Stream size : 13.9 KiB (0%) 
Language : English 
Default : Yes 
Forced : No 



                                      








 
Category:TV > Packs
Lang:Unknown/NA
Total Size:2.83 GB
Info Hash:e5102e964fa07bc79b2f3b06b534c274b516e550
Added By:suryadipta
Date Added:09-09-2021 07:21:41
Views:0
Hits:0
Rating:

/5 (0 votes cast)

Thanked by:

Viewed By:amitintel (1)



URLSeedersLeechersCompleted
udp://tracker.nyaa.uk:6969/announce000
udp://tracker.coppersurfer.tk:6969/announce000
udp://tracker.opentrackr.org:1337/announce000
udp://9.rarbg.com:2820/announce000
udp://p4p.arenabg.com:1337/announce000
udp://tracker.pirateparty.gr:6969/announce000
udp://exodus.desync.com:6969/announce000
udp://tracker.torrent.eu.org:451/announce000
udp://tracker.tiny-vps.com:6969/announce000
http://pow7.com:80/announce000
udp://9.rarbg.to:2750/announce000
udp://open.stealth.si:80/announce000
udp://tracker.leechers-paradise.org:6969/announce000
http://t.nyaatracker.com:80/announce000
udp://tracker.trackerfix.com:81/announce000


Similar Torrents
None found

Comments

There are no comments yet.

Disclaimer
None of the files shown here are actually hosted on this server. The links are provided solely by this sites users. The administrator of this site cannot be held responsible for what its users post, or any other actions of its users. You may not use this site to distribute or download any material when you do not have the legal rights to do so. It is your own responsibility to adhere to these terms.

Page Generated In 0.017858 secs.
RSS Feed | Feed Info