[Login] or [Signup]
Popular Movies

Popular TV

Online Users

Lucifer.S06.COMPLETE.720p.NF.English-Hindi.DDP.5.1.x264.[HashMiner]
Download this torrent
Download this torrent via magnet

Health:
Seeds: 13
Leechers: 60
Completed: 22 
Last Checked: 10-09-2021 15:40:02


File List:
 435.71 MB  Lucifer.S06E01.720p.NF.DDP.5.1.x264.[HashMiner].mkv
 502.84 MB  Lucifer.S06E02.720p.NF.DDP.5.1.x264.[HashMiner].mkv
 407.19 MB  Lucifer.S06E03.720p.NF.DDP.5.1.x264.[HashMiner].mkv
 402.82 MB  Lucifer.S06E04.720p.NF.DDP.5.1.x264.[HashMiner].mkv
 423.83 MB  Lucifer.S06E05.720p.NF.DDP.5.1.x264.[HashMiner].mkv
 490.70 MB  Lucifer.S06E06.720p.NF.DDP.5.1.x264.[HashMiner].mkv
 527.23 MB  Lucifer.S06E07.720p.NF.DDP.5.1.x264.[HashMiner].mkv
 499.73 MB  Lucifer.S06E08.720p.NF.DDP.5.1.x264.[HashMiner].mkv
 592.96 MB  Lucifer.S06E09.720p.NF.DDP.5.1.x264.[HashMiner].mkv
 480.83 MB  Lucifer.S06E10.720p.NF.DDP.5.1.x264.[HashMiner].mkv
 1.49 kB  Uploaded by HashMiner! [ReadMe].txt


Details


Encoded by HashMiner!

1337x  |  TorrentGalaxy

1080p x265 will be uploaded soon!!



 ══════════════════════════════════════════════════════════════════════════


Audio Language: English, Hindi.

Subtitles Included: English.


 ══════════════════════════════════════════════════════════════════════════







Genre: Comedy Crime Fantasy.
Stars : Tom Ellis, Lauren German, D.B. Woodside, Lesley-Ann Brandt, Kevin Alejandro, Rachael Harris, Aimee Garcia, Scarlett Estevez, Tom Welling, Tricia Helfer
Plot : Lucifer, the original fallen angel, is bored and unhappy in Hell and decides to retire to Los Angeles and open an upscale nightclub. After a murder takes place outside his club, he meets an intriguing homicide detective named Chloe, and partners up with her to solve cases.

 ══════════════════════════════════════════════════════════════════════════














══════════════════════════════════════════════════════════════════════════



[quote][code]General
Unique ID                      : 255588095524409973707365114359127476411 (0xC0487A0662B731746E33EAF0867C08BB)
Complete name                  : Lucifer.S06E01.720p.NF.DDP.5.1.x264.[HashMiner].mkv
Format                         : Matroska
Format version                 : Version 4 / Version 2
File size                      : 436 MiB
Duration                       : 48 min 25 s
Overall bit rate               : 1 258 kb/s
Writing application            : mkvmerge v50.0.0 ('Awakenings') 64-bit
Writing library                : libebml v1.4.0 + libmatroska v1.6.2
Video
ID                             : 1
Format                         : AVC
Format/Info                    : Advanced Video Codec
Format profile                 : [email protected]
Format settings, CABAC         : Yes
Format settings, RefFrames     : 4 frames
Codec ID                       : V_MPEG4/ISO/AVC
Duration                       : 48 min 23 s
Bit rate                       : 1 000 kb/s
Width                          : 1 280 pixels
Height                         : 720 pixels
Display aspect ratio           : 16:9
Frame rate mode                : Constant
Frame rate                     : 23.976 (24000/1001) FPS
Color space                    : YUV
Chroma subsampling             : 4:2:0
Bit depth                      : 8 bits
Scan type                      : Progressive
Bits/(Pixel*Frame)             : 0.045
Stream size                    : 346 MiB (79%)
Title                          : Encoded by HashMiner!
Writing library                : x264 core 157 r2935 545de2f
Encoding settings              : cabac=1 / ref=3 / deblock=1:0:0 / analyse=0x3:0x113 / me=hex / subme=7 / psy=1 / psy_rd=1.00:0.00 / mixed_ref=1 / me_range=16 / chroma_me=1 / trellis=1 / 8x8dct=1 / cqm=0 / deadzone=21,11 / fast_pskip=1 / chroma_qp_offset=-2 / threads=22 / lookahead_threads=3 / sliced_threads=0 / nr=0 / decimate=1 / interlaced=0 / bluray_compat=0 / constrained_intra=0 / bframes=3 / b_pyramid=2 / b_adapt=1 / b_bias=0 / direct=1 / weightb=1 / open_gop=0 / weightp=2 / keyint=240 / keyint_min=24 / scenecut=40 / intra_refresh=0 / rc_lookahead=40 / rc=2pass / mbtree=1 / bitrate=1000 / ratetol=1.0 / qcomp=0.60 / qpmin=0 / qpmax=69 / qpstep=4 / cplxblur=20.0 / qblur=0.5 / ip_ratio=1.40 / aq=1:1.00
Default                        : Yes
Forced                         : Yes
Color range                    : Limited
Color primaries                : BT.709
Transfer characteristics       : BT.709
Matrix coefficients            : BT.709
Audio #1
ID                             : 2
Format                         : AAC
Format/Info                    : Advanced Audio Codec
Format profile                 : HE-AAC / LC
Codec ID                       : A_AAC
Duration                       : 48 min 25 s
Bit rate                       : 128 kb/s
Channel(s)                     : 6 channels
Channel positions              : Front: L C R, Side: L R, LFE
Sampling rate                  : 48.0 kHz / 24.0 kHz
Frame rate                     : 23.438 FPS (1024 SPF)
Compression mode               : Lossy
Delay relative to video        : -105 ms
Stream size                    : 44.3 MiB (10%)
Language                       : Hindi
Default                        : No
Forced                         : Yes
Audio #2
ID                             : 3
Format                         : AAC
Format/Info                    : Advanced Audio Codec
Format profile                 : HE-AAC / LC
Codec ID                       : A_AAC
Duration                       : 48 min 25 s
Bit rate                       : 128 kb/s
Channel(s)                     : 6 channels
Channel positions              : Front: L C R, Side: L R, LFE
Sampling rate                  : 48.0 kHz / 24.0 kHz
Frame rate                     : 23.438 FPS (1024 SPF)
Compression mode               : Lossy
Delay relative to video        : -105 ms
Stream size                    : 44.3 MiB (10%)
Language                       : English
Default                        : No
Forced                         : No
Text
ID                             : 4
Format                         : ASS
Codec ID                       : S_TEXT/ASS
Codec ID/Info                  : Advanced Sub Station Alpha
Duration                       : 46 min 10 s
Bit rate                       : 199 b/s
Count of elements              : 907
Compression mode               : Lossless
Stream size                    : 67.5 KiB (0%)
Language                       : English
Default                        : Yes
Forced                         : Yes

[/code]
[/quote]
 ══════════════════════════════════════════════════════════════════════════




If you like my Encodes, Please consider donating


Bitcoin: 13Gm1RLtiLspyL7NrXZmeVKCXHTC5Eih1h

Ethereum: 0x1bA096179a4E3f9d6Ce3F89Ba7b9Ff94c325AdE8

Monero:
469v2aUdtVuH8VAU9fuPkNHA2gdkkST9p8QEZ1NyBCX2ekH47R6cpb77i2j7zG989v34GiZgW8eqcDnTTAzFmexE2cPRCzA


 
Category:TV > Packs
Lang:English  English
Total Size:4.65 GB
Info Hash:01881a9dd3a1e53cd04e220f1d4650955378f322
Added By:HashMiner
Date Added:10-09-2021 15:38:44
Views:0
Hits:0
Rating:

/5 (0 votes cast)

Thanked by:
Viewed By:No users have viewed this torrent yet



URLSeedersLeechersCompleted
udp://open.stealth.si:80/announce000
udp://tracker.tiny-vps.com:6969/announce000
udp://fasttracker.foreverpirates.co:6969/announce000
udp://tracker.opentrackr.org:1337/announce000
udp://tracker.uw0.xyz:6969/announce000
udp://opentracker.i2p.rocks:6969/announce000
udp://tracker.torrent.eu.org:451/announce000
udp://opentor.org:2710/announce000
udp://tracker.dler.org:6969/announce000


Similar Torrents
Type Name Size Added S L
[FRUK]Lucifer S06 - Nothing Ever Changes Around Here E01
1.02 GB 2021-09-10 08:11:12 2 0
Lucifer.S06.COMPLETE.1080p.NF.10bit.DDP.5.1.x265.[HashMiner] Lucifer.S06.COMPLETE.1080p.NF.10bit.DDP.5.1.x265.[HashMiner]
7.57 GB 2021-09-10 14:31:55 1 10
Lucifer.S01-S06.All.Seasons.COMPLETE.720p.[HashMiner] Lucifer.S01-S06.All.Seasons.COMPLETE.720p.[HashMiner]
31.79 GB 2021-09-23 05:31:32 1 4

Comments

There are no comments yet.

Disclaimer
None of the files shown here are actually hosted on this server. The links are provided solely by this sites users. The administrator of this site cannot be held responsible for what its users post, or any other actions of its users. You may not use this site to distribute or download any material when you do not have the legal rights to do so. It is your own responsibility to adhere to these terms.

Page Generated In 0.014370 secs.
RSS Feed | Feed Info