[Login] or [Signup]
Popular Movies

Popular TV

Online Users

Vijay Aso 2013 Marathi 1080p Web-DL x264 AAC [TMB]
Download this torrent
Download this torrent via magnet

Health:
Seeds: 2
Leechers: 2
Completed:
Last Checked: 12-09-2021 08:05:40


File List:
 3.14 GB    Vijay Aso 2013 Marathi 1080p Web-DL x264 AAC [TMB].mkv


Details





















General
Complete name                            : Vijay Aso 2013 Marathi 1080p Web-DL x264 AAC [TMB].mkv
Format                                   : Matroska
Format version                           : Version 4
File size                                : 3.14 GiB
Duration                                 : 1 h 44 min
Overall bit rate                         : 4 278 kb/s

Video
Format                                   : AVC
Format/Info                              : Advanced Video Codec
Format profile                           : [email protected]
Format settings                          : CABAC / 1 Ref Frames
Format settings, CABAC                   : Yes
Format settings, Reference frames        : 1 frame
Format settings, GOP                     : M=1, N=25
Codec ID                                 : V_MPEG4/ISO/AVC
Duration                                 : 1 h 44 min
Bit rate mode                            : Constant
Bit rate                                 : 4 214 kb/s
Nominal bit rate                         : 4 500 kb/s
Width                                    : 1 920 pixels
Height                                   : 1 080 pixels
Display aspect ratio                     : 16:9
Frame rate mode                          : Constant
Frame rate                               : 25.000 FPS
Color space                              : YUV
Chroma subsampling                       : 4:2:0
Bit depth                                : 8 bits
Scan type                                : Progressive
Bits/(Pixel*Frame)                       : 0.081
Stream size                              : 3.09 GiB (99%)

Audio
Format                                   : AAC LC
Format/Info                              : Advanced Audio Codec Low Complexity
Codec ID                                 : A_AAC-2
Duration                                 : 1 h 44 min
Bit rate                                 : 61.4 kb/s
Channel(s)                               : 2 channels
Channel layout                           : L R
Sampling rate                            : 48.0 kHz
Frame rate                               : 46.875 FPS (1024 SPF)
Compression mode                         : Lossy
Stream size                              : 46.1 MiB (1%)



Uploaded & Shared by TMB

Seeding 24x7... Extreme Seeding...



Enjoy!


 
Category:Movies > Other
Lang:Unknown/NA
Total Size:3.14 GB
Info Hash:b628539f873abd068fc419357462f0a96f68123c
Added By:TMB
Date Added:12-09-2021 08:03:06
Views:0
Hits:0
Rating:

/5 (0 votes cast)

Thanked by:
Viewed By:No users have viewed this torrent yet



URLSeedersLeechersCompleted
udp://tracker.coppersurfer.tk:6969/announce000
udp://tracker.opentrackr.org:1337/announce000
udp://tracker.leechers-paradise.org:6969/announce000
udp://tracker.internetwarriors.net:1337/announce000
udp://p4p.arenabg.com:1337/announce000
udp://9.rarbg.to:2710/announce000
udp://9.rarbg.me:2710/announce000
udp://exodus.desync.com:6969/announce000
udp://tracker.cyberia.is:6969/announce000
udp://open.stealth.si:80/announce000
udp://tracker.tiny-vps.com:6969/announce000
udp://retracker.lanta-net.ru:2710/announce000
udp://tracker.torrent.eu.org:451/announce000
udp://tracker.moeking.me:6969/announce000
udp://ipv4.tracker.harry.lu:80/announce000


Similar Torrents
None found

Comments

There are no comments yet.

Disclaimer
None of the files shown here are actually hosted on this server. The links are provided solely by this sites users. The administrator of this site cannot be held responsible for what its users post, or any other actions of its users. You may not use this site to distribute or download any material when you do not have the legal rights to do so. It is your own responsibility to adhere to these terms.

Page Generated In 0.014615 secs.
RSS Feed | Feed Info