[Login] or [Signup]
Popular Movies

Popular TV

Online Users

I.아이.2021.Korean.1080p.NF.10bit.DDP.5.1.x265.[HashMiner]
Download this torrent
Download this torrent via magnet

Health:
Seeds: 24
Leechers: 2
Completed: 517 
Last Checked: 14-09-2021 17:35:26


File List:
 2.82 GB    I.아이.2021.Korean.1080p.NF.10bit.DDP.5.1.x265.[HashMiner].mkv
 1.49 kB  Uploaded by HashMiner! [ReadMe].txt


Details


Encoded by HashMiner!

1337x  |  TorrentGalaxy


Please share this torrent with your Friends!!!


 ══════════════════════════════════════════════════════════════════════════


Audio Language: Korean.

Subtitles Included: English, Korean.

 ══════════════════════════════════════════════════════════════════════════







Genre: Drama.
Plot : Ah-young, a grown orphan with government aid cut off, starts working as a nanny for Young-chae, a single mother who works at a bar. One day, while Ah-young is asleep, Young-chae comes home drunk and seriously injures her baby by mistake.

 ══════════════════════════════════════════════════════════════════════════
















══════════════════════════════════════════════════════════════════════════



[quote][code]General
Unique ID                      : 28860442488283818446903859046590490141 (0x15B651AC950A0901673DB6D84D84A61D)
Complete name                  : I.아이.2021.Korean.1080p.NF.10bit.DDP.5.1.x265.[HashMiner].mkv
Format                         : Matroska
Format version                 : Version 4 / Version 2
File size                      : 2.82 GiB
Duration                       : 1 h 52 min
Overall bit rate               : 3 581 kb/s
Writing library                : Lavf58.76.100
ErrorDetectionType             : Per level 1
Video
ID                             : 1
Format                         : HEVC
Format/Info                    : High Efficiency Video Coding
Format profile                 : Main [email protected]@Main
Codec ID                       : V_MPEGH/ISO/HEVC
Duration                       : 1 h 52 min
Bit rate                       : 2 870 kb/s
Width                          : 1 920 pixels
Height                         : 1 080 pixels
Display aspect ratio           : 16:9
Frame rate mode                : Constant
Frame rate                     : 23.976 (24000/1001) FPS
Color space                    : YUV
Chroma subsampling             : 4:2:0
Bit depth                      : 10 bits
Bits/(Pixel*Frame)             : 0.058
Stream size                    : 2.26 GiB (80%)
Title                          : Encoded by HashMiner!
Writing library                : x265 3.5+1-f0c1022b6:[Windows][clang 12.0.0][64 bit] 10bit
Encoding settings              : cpuid=1111039 / frame-threads=3 / numa-pools=12 / wpp / no-pmode / no-pme / no-psnr / no-ssim / log-level=2 / input-csp=1 / input-res=1920x1080 / interlace=0 / total-frames=0 / level-idc=0 / high-tier=1 / uhd-bd=0 / ref=1 / no-allow-non-conformance / no-repeat-headers / annexb / no-aud / no-hrd / info / hash=0 / no-temporal-layers / open-gop / min-keyint=24 / keyint=240 / gop-lookahead=0 / bframes=3 / b-adapt=0 / b-pyramid / bframe-bias=0 / rc-lookahead=10 / lookahead-slices=6 / scenecut=40 / hist-scenecut=0 / radl=0 / no-splice / no-intra-refresh / ctu=32 / min-cu-size=8 / no-rect / no-amp / max-tu-size=32 / tu-inter-depth=1 / tu-intra-depth=1 / limit-tu=0 / rdoq-level=0 / dynamic-rd=0.00 / no-ssim-rd / signhide / no-tskip / nr-intra=0 / nr-inter=0 / no-constrained-intra / strong-intra-smoothing / max-merge=2 / limit-refs=0 / no-limit-modes / me=1 / subme=1 / merange=57 / temporal-mvp / no-frame-dup / no-hme / no-weightp / no-weightb / no-analyze-src-pics / deblock=0:0 / no-sao / no-sao-non-deblock / rd=2 / selective-sao=0 / early-skip / rskip / fast-intra / no-tskip-fast / no-cu-lossless / no-b-intra / no-splitrd-skip / rdpenalty=0 / psy-rd=2.00 / psy-rdoq=0.00 / no-rd-refine / no-lossless / cbqpoffs=0 / crqpoffs=0 / rc=crf / crf=16.0 / qcomp=0.60 / qpstep=4 / stats-write=0 / stats-read=0 / ipratio=1.40 / pbratio=1.30 / aq-mode=1 / aq-strength=0.00 / cutree / zone-count=0 / no-strict-cbr / qg-size=32 / no-rc-grain / qpmax=69 / qpmin=0 / no-const-vbv / sar=1 / overscan=0 / videoformat=5 / range=0 / colorprim=1 / transfer=1 / colormatrix=1 / chromaloc=0 / display-window=0 / cll=0,0 / min-luma=0 / max-luma=1023 / log2-max-poc-lsb=8 / vui-timing-info / vui-hrd-info / slices=1 / no-opt-qp-pps / no-opt-ref-list-length-pps / no-multi-pass-opt-rps / scenecut-bias=0.05 / hist-threshold=0.03 / no-opt-cu-delta-qp / no-aq-motion / no-hdr10 / no-hdr10-opt / no-dhdr10-opt / no-idr-recovery-sei / analysis-reuse-level=0 / analysis-save-reuse-level=0 / analysis-load-reuse-level=0 / scale-factor=0 / refine-intra=0 / refine-inter=0 / refine-mv=1 / refine-ctu-distortion=0 / no-limit-sao / ctu-info=0 / no-lowpass-dct / refine-analysis-type=0 / copy-pic=1 / max-ausize-factor=1.0 / no-dynamic-refine / no-single-sei / no-hevc-aq / no-svt / no-field / qp-adaptation-range=1.00 / scenecut-aware-qp=0conformance-window-offsets / right=0 / bottom=0 / decoder-max-rate=0 / no-vbv-live-multi-pass
Default                        : Yes
Forced                         : No
Color range                    : Limited
Color primaries                : BT.709
Transfer characteristics       : BT.709
Matrix coefficients            : BT.709
Audio
ID                             : 2
Format                         : E-AC-3
Format/Info                    : Enhanced Audio Coding 3
Format settings, Endianness    : Big
Codec ID                       : A_EAC3
Duration                       : 1 h 52 min
Bit rate mode                  : Constant
Bit rate                       : 640 kb/s
Channel(s)                     : 6 channels
Channel positions              : Front: L C R, Side: L R, LFE
Sampling rate                  : 48.0 kHz
Frame rate                     : 187.500 FPS (256 SPF)
Compression mode               : Lossy
Delay relative to video        : -5 ms
Stream size                    : 517 MiB (18%)
Language                       : Korean
Service kind                   : Complete Main
Default                        : Yes
Forced                         : No
Text #1
ID                             : 3
Format                         : ASS
Codec ID                       : S_TEXT/ASS
Codec ID/Info                  : Advanced Sub Station Alpha
Compression mode               : Lossless
Language                       : English
Default                        : No
Forced                         : No
Text #2
ID                             : 4
Format                         : ASS
Codec ID                       : S_TEXT/ASS
Codec ID/Info                  : Advanced Sub Station Alpha
Compression mode               : Lossless
Title                          : SDH
Language                       : Korean
Default                        : No
Forced                         : No[/code]
[/quote]
 ══════════════════════════════════════════════════════════════════════════




If you like my Encodes, Please consider donating


Bitcoin: 13Gm1RLtiLspyL7NrXZmeVKCXHTC5Eih1h

Ethereum: 0x1bA096179a4E3f9d6Ce3F89Ba7b9Ff94c325AdE8

Monero:
469v2aUdtVuH8VAU9fuPkNHA2gdkkST9p8QEZ1NyBCX2ekH47R6cpb77i2j7zG989v34GiZgW8eqcDnTTAzFmexE2cPRCzA


 
Category:Movies > HD/Bluray
Lang:English  English
Total Size:2.82 GB
Info Hash:b9438344f5cc735020da12df5efc9bafe5f99809
Added By:HashMiner
Date Added:14-09-2021 17:30:06
Views:0
Hits:0
Rating:

/5 (0 votes cast)

Thanked by:
Viewed By:No users have viewed this torrent yet



URLSeedersLeechersCompleted
udp://open.stealth.si:80/announce000
udp://tracker.tiny-vps.com:6969/announce000
udp://fasttracker.foreverpirates.co:6969/announce000
udp://tracker.opentrackr.org:1337/announce000
udp://tracker.uw0.xyz:6969/announce000
udp://opentracker.i2p.rocks:6969/announce000
udp://tracker.torrent.eu.org:451/announce000
udp://opentor.org:2710/announce000
udp://tracker.dler.org:6969/announce000


Similar Torrents
None found

Comments

There are no comments yet.

Disclaimer
None of the files shown here are actually hosted on this server. The links are provided solely by this sites users. The administrator of this site cannot be held responsible for what its users post, or any other actions of its users. You may not use this site to distribute or download any material when you do not have the legal rights to do so. It is your own responsibility to adhere to these terms.

Page Generated In 0.014163 secs.
RSS Feed | Feed Info